<?xml version="1.0" encoding="UTF-8" standalone="no"?>
<svg
   xmlns:dc="http://purl.org/dc/elements/1.1/"
   xmlns:cc="http://creativecommons.org/ns#"
   xmlns:rdf="http://www.w3.org/1999/02/22-rdf-syntax-ns#"
   xmlns:svg="http://www.w3.org/2000/svg"
   xmlns="http://www.w3.org/2000/svg"
   id="svg557"
   viewBox="0 0 13229.166 5291.667"
   style="clip-rule:evenodd;fill-rule:evenodd;image-rendering:optimizeQuality;shape-rendering:geometricPrecision;text-rendering:geometricPrecision"
   version="1.1"
   height="200"
   width="500"
   xml:space="preserve"><metadata
   id="metadata561"><rdf:RDF><cc:Work
       rdf:about=""><dc:format>image/svg+xml</dc:format><dc:type
         rdf:resource="http://purl.org/dc/dcmitype/StillImage" /><dc:title></dc:title></cc:Work></rdf:RDF></metadata>
 <defs
   id="defs172">
  <font
   style="font-style:normal;font-variant:normal;font-weight:400"
   vert-adv-y="90"
   vert-origin-y="90"
   vert-origin-x="45"
   horiz-origin-y="0"
   horiz-origin-x="0"
   font-weight="400"
   font-style="normal"
   font-variant="normal"
   horiz-adv-x="637"
   id="FontID1">
	<font-face
   id="font-face2"
   font-family="Coolvetica Rg">
		<font-face-src>
			<font-face-name
   name="CoolveticaRg-Regular" />
		</font-face-src>
	</font-face>
   <missing-glyph
   id="missing-glyph6"><path
     id="path4"
     d="M0 0z" /></missing-glyph>
   <glyph
   id="glyph8"
   d=""
   horiz-adv-x="246"
   unicode=" " />
   <glyph
   id="glyph10"
   d="M264.999 83.0005c25.3359,1.33248 45.4996,10.3333 60.5022,26.9987 14.9989,16.6692 22.4983,35.6692 22.4983,57.0002 0,23.3353 -7.49944,42.9998 -22.4983,59.0008 -15.0026,16.0011 -35.1663,27.3328 -60.5022,33.9989l0 -176.999zm-40.9992 476c-24.6678,-1.33248 -43.9982,-9.33488 -57.9986,-23.9997 -14.0005,-14.6686 -21.0007,-31.668 -21.0007,-51.0022 0,-19.9985 6.83132,-38.1653 20.5015,-54.5004 13.6664,-16.3314 33.1657,-26.1655 58.4979,-29.4985l0 159.001zm0 -614l0 38.9986c-37.332,3.33308 -69.1652,9.66894 -95.4996,19.0001 -26.3344,9.33488 -47.9994,22.6672 -64.9989,40.0008 -16.9995,17.3335 -29.5023,38.8334 -37.5009,64.4997 -7.99865,25.6662 -11.9998,56.167 -11.9998,91.5021l119.998 0c2.66872,-21.3347 6.16695,-39.0023 10.5022,-53.0028 4.33151,-14.0005 9.99925,-25.3322 16.9995,-33.9989 7.00023,-8.66677 15.4981,-15.1678 25.5011,-19.4993 9.99925,-4.33526 22.3332,-7.49944 36.998,-9.50004l0 193c-33.3346,8.66677 -62.3339,18.5009 -86.998,29.4985 -24.6678,11.0014 -45.1693,23.9997 -61.5006,39.0023 -16.3351,14.9989 -28.669,32.3324 -37.0017,52.0006 -8.33271,19.6644 -12.4991,43.1649 -12.4991,70.4977 0,26.0003 4.99962,50.4992 14.9989,73.5005 9.99925,23.0013 23.8345,43.1649 41.5021,60.4985 17.6638,17.3335 38.4994,30.9999 62.4991,41.0029 23.9997,9.99925 50.3341,15.3329 78.9993,15.9973l0 44.002 40.9992 0 0 -44.002c123.335,-3.99745 188,-68.666 194.002,-193.998l-118.002 0c-3.33308,35.9995 -11.1666,60.4985 -23.5005,73.5005 -12.3302,12.9983 -29.8326,20.1674 -52.4998,21.4999l0 -171.999c44.6663,-14.6686 80.5007,-29.0031 107.499,-43.0035 27.0025,-13.9967 47.6691,-28.8304 61.9998,-44.4974 14.3345,-15.667 23.8345,-32.8354 28.5001,-51.5014 4.66932,-18.666 7.00023,-40.3311 7.00023,-64.9989 0,-29.3334 -4.83072,-55.8329 -14.4997,-79.5023 -9.66519,-23.6656 -23.5005,-44.1634 -41.4984,-61.4969 -18.0017,-17.3335 -39.6667,-30.9999 -64.9989,-41.0029 -25.3359,-9.99925 -53.3331,-15.6632 -84.0027,-16.9995l0 -38.9986 -40.9992 0z"
   horiz-adv-x="476"
   unicode="$" />
   <glyph
   id="glyph12"
   d="M211 107l0 189 -188 0 0 94 188 0 0 188 94 0 0 -188 189 0 0 -94 -189 0 0 -189 -94 0z"
   horiz-adv-x="517"
   unicode="+" />
   <glyph
   id="glyph14"
   d="M22.9995 -106c25.3334,6.66739 44.3338,18 56.9999,34.0004 12.6674,16.0004 19.3334,40.0004 20.0008,71.9999l-77.0007 0 0 135 138.001 0 0 -102c0,-28.0004 -2.33392,-52.6664 -7.00043,-73.9994 -4.66651,-21.3343 -12.333,-39.5002 -22.9995,-54.5001 -10.6678,-15 -24.8345,-27.5002 -42.5001,-37.5006 -17.6669,-10.0004 -39.5002,-17.6669 -65.501,-22.9995l0 49.9995z"
   horiz-adv-x="184"
   unicode="," />
   <glyph
   id="glyph16"
   d="M-4.99962 0l190.001 664 108.997 0 -191.998 -664 -107 0z"
   horiz-adv-x="293"
   unicode="/" />
   <glyph
   id="glyph18"
   d="M247.001 81.9983c15.9973,0 29.8326,4.50041 41.4984,13.5012 11.6658,9.00083 21.3347,23.3353 28.9993,42.9998 7.66834,19.6682 13.5012,45.3344 17.5024,77.0025 3.99745,31.6643 5.99805,70.1637 5.99805,115.498 0,45.9988 -2.0006,85.0011 -5.99805,116.999 -4.0012,32.0021 -9.8341,57.8335 -17.5024,77.5017 -7.66459,19.6644 -17.3335,33.9989 -28.9993,42.9998 -11.6658,9.00083 -25.5011,13.4975 -41.4984,13.4975 -16.0011,0 -29.8326,-4.33151 -41.5021,-12.9983 -11.6658,-8.66677 -21.4999,-22.8324 -29.4985,-42.5006 -7.99865,-19.6644 -14.0005,-45.3344 -18.0017,-76.9987 -3.99745,-31.668 -5.99805,-70.5015 -5.99805,-116.5 0,-45.9988 2.0006,-85.0011 5.99805,-116.999 4.0012,-32.0021 10.003,-58.0024 18.0017,-78.0009 7.99865,-19.9985 17.8327,-34.333 29.4985,-42.9998 11.6695,-8.66677 25.5011,-13.002 41.5021,-13.002zm-4.0012 -105c-35.9995,0 -67.9979,7.00023 -95.9988,21.0007 -28.0009,14.0005 -51.6665,35.5003 -71.0007,64.4997 -19.3341,28.9993 -33.9989,66.0011 -44.002,111.001 -9.99925,45.0004 -14.9989,98.8327 -14.9989,161.501 0,61.9998 4.99962,115.164 14.9989,159.5 10.003,44.3323 24.6678,80.6659 44.002,108.997 19.3341,28.335 42.9998,49.1667 71.0007,62.5028 28.0009,13.3323 59.9992,19.9985 95.9988,19.9985 35.9995,0 68.1668,-6.66617 96.5018,-19.9985 28.3312,-13.3361 52.3309,-34.0027 71.9991,-61.9998 19.6644,-28.0009 34.8322,-64.0005 45.4996,-108.002 10.6674,-43.9982 16.0011,-96.9972 16.0011,-158.997 0,-123.335 -20.5015,-214.169 -61.5006,-272.502 -40.9992,-58.3327 -97.1661,-87.5009 -168.501,-87.5009z"
   horiz-adv-x="485"
   unicode="0" />
   <glyph
   id="glyph20"
   d="M28.0002 261l14.0001 403.001 408.999 0 0 -110.001 -292.999 0 -6.00026 -177.999c17.3327,18.6658 37.5005,31.167 60.5002,37.5005 22.9997,6.33199 46.8334,9.49875 71.4994,9.49875 26.6672,0 51.8339,-4.66568 75.5001,-14.0001 23.6663,-9.33289 43.9999,-22.8323 61.0009,-40.4999 16.9995,-17.666 30.4989,-39.5001 40.4999,-65.4992 9.99942,-26.0006 14.9999,-55.6672 14.9999,-88.9996 0,-36 -5.667,-68.5001 -17.001,-97.5001 -11.3325,-29 -26.9989,-53.8334 -46.9993,-74.5003 -20.0004,-20.6669 -43.9999,-36.6666 -72.0001,-48.0006 -28.0002,-11.3325 -58.9998,-16.9995 -93.0003,-16.9995 -29.9998,0 -58.1659,4.83308 -84.4998,14.4992 -26.3339,9.66769 -49.4995,23.0013 -69.4999,40.0007 -20.0004,16.9995 -35.8342,37.3331 -47.4999,60.9994 -11.6673,23.6678 -18.1667,49.8343 -19.4997,78.501l130 0c2.6661,-28.0002 11.999,-49.6669 27.9987,-65 16.0012,-15.3332 36.9998,-23.0013 63.0005,-23.0013 36,0 61.5,11.334 76.4999,34.0005 14.9999,22.6665 22.5006,52.9995 22.5006,91.0007 0,34.6655 -7.50071,61.6659 -22.5006,80.9997 -14.9999,19.3338 -37.8338,29 -68.5001,29 -23.333,0 -42.3336,-4.83308 -57.0002,-14.5008 -14.6666,-9.66615 -26.6656,-23.8321 -36,-42.4994l-133.999 0z"
   horiz-adv-x="485"
   unicode="5" />
   <glyph
   id="glyph22"
   d="M94.9994 0c4.00044,47.9999 11.6669,95.9998 23.0008,144 11.3326,47.9999 26.8328,95.3338 46.4993,142 19.6678,46.6664 43.0004,92.1666 70.0003,136.5 27,44.3325 58.1662,86.4996 93.5001,126.5l-323.999 0 0 115 464.999 0 0 -100c-74.6668,-83.3338 -132,-173.166 -172,-269.501 -39.999,-96.3329 -62.6655,-194.499 -67.9994,-294.5l-134.001 0z"
   horiz-adv-x="473"
   unicode="7" />
   <glyph
   id="glyph24"
   d="M238 331c29.3334,0 53.1679,11.1666 71.4999,33.4997 18.332,22.3332 27.5017,51.8354 27.5017,88.4994 0,38.0002 -8.83567,68.8349 -26.5033,92.5006 -17.6638,23.6656 -42.4968,35.5003 -74.4989,35.5003 -15.3329,0 -28.6653,-3.16793 -40.0008,-9.50004 -11.3317,-6.33211 -20.9969,-15.1678 -28.9993,-26.4995 -7.99865,-11.3355 -14.0005,-24.6678 -17.9979,-40.0008 -4.0012,-15.3329 -6.0018,-31.9983 -6.0018,-50 0,-38.0002 8.66677,-68.1668 26.0003,-90.5 17.3335,-22.3332 40.3348,-33.4997 69.0001,-33.4997zm-81.9983 -188c3.33308,-41.3332 26.6647,-61.9998 69.9985,-61.9998 35.9995,0 62.8331,17.1684 80.5007,51.5014 17.6638,34.333 28.5001,87.1669 32.4976,158.498 -15.3329,-17.9979 -33.4997,-32.8316 -54.5004,-44.4974 -20.9969,-11.6695 -48.1646,-17.5024 -81.4991,-17.5024 -26.0003,0 -50.4992,4.99962 -73.5005,14.9989 -22.9975,10.003 -42.9998,24.5027 -59.9992,43.5027 -16.9995,19.0001 -30.3318,41.9976 -40.0008,69.0001 -9.66519,26.9987 -14.4997,57.8335 -14.4997,92.5006 0,33.9989 5.33368,65.4981 16.0011,94.4974 10.6674,28.9993 25.5011,54.0012 44.5012,75.0019 19.0001,21.0007 41.9976,37.5009 69.0001,49.5008 26.9987,11.9998 56.8313,17.9979 89.4978,17.9979 78.669,0 137.167,-28.0009 175.501,-83.9989 38.3342,-56.0018 57.4994,-139.002 57.4994,-249.002 0,-66.6654 -5.16478,-123.666 -15.4981,-171.001 -10.3333,-47.3313 -25.6662,-86.1647 -46.0026,-116.497 -20.3326,-30.3356 -45.9988,-52.6687 -76.9987,-67.0032 -30.9999,-14.3308 -67.1684,-21.4999 -108.502,-21.4999 -53.9974,0 -97.8305,14.1694 -131.499,42.5006 -33.6649,28.335 -54.1664,69.4993 -61.5006,123.5l129.003 0z"
   horiz-adv-x="481"
   unicode="9" />
   <glyph
   id="glyph26"
   d="M537 0l0 455 -124 -455 -138 0 -123 453.001 0 -453.001 -129 0 0 664.001 204 0 120.001 -487.001 119.999 487.001 200.001 0 0 -664.001 -130 0z"
   horiz-adv-x="689"
   unicode="M" />
   <glyph
   id="glyph28"
   d="M157.999 549.002l0 -177.002 174 0c37.3358,0 63.6701,8.33271 79.0031,25.0019 15.3329,16.6654 22.9975,37.6661 22.9975,62.9983 0,26.0003 -7.49944,47.335 -22.4983,64.0005 -14.9989,16.6654 -39.8356,25.0019 -74.4989,25.0019l-179.003 0zm252.001 -549.002l0 171.001c0,31.9983 -7.33428,54.8345 -21.9991,68.5009 -14.6686,13.6664 -42.0014,20.4977 -81.9983,20.4977l-148.003 0 0 -259.999 -134.997 0 0 664 336.998 0c30.6659,0 58.5016,-4.83447 83.4997,-14.4997 25.0019,-9.66894 46.5018,-23.0013 64.4997,-40.0008 18.0017,-16.9995 31.8332,-37.332 41.5021,-61.0014 9.66519,-23.6656 14.4997,-49.1667 14.4997,-76.4995 0,-35.9995 -8.50161,-67.8327 -25.5011,-95.4996 -16.9995,-27.6668 -41.4984,-47.1661 -73.5005,-58.4979 29.3334,-9.33488 50.1689,-23.6694 62.5028,-42.9998 12.3302,-19.3341 18.4971,-48.3335 18.4971,-87.0017l0 -188 -136 0z"
   horiz-adv-x="573"
   unicode="R" />
   <glyph
   id="glyph30"
   d="M399.002 468.002c-3.33308,33.9989 -15.667,59.3311 -37.0017,75.9965 -21.3347,16.6692 -53.3331,25.0019 -95.9988,25.0019 -78.669,0 -118.002,-26.9987 -118.002,-80.9999 0,-19.3341 8.16755,-35.5003 24.4989,-48.4986 16.3351,-13.002 42.5006,-23.8345 78.5001,-32.5013 42.6695,-9.99925 79.6674,-19.3341 111.001,-28.0009 31.334,-8.66677 59.9992,-18.666 85.9995,-29.9977 14.6686,-6.0018 28.5001,-13.5012 41.5021,-22.5021 12.9983,-9.00083 23.9997,-20.1674 32.9968,-33.4997 9.00083,-13.3323 16.17,-29.3334 21.4999,-47.9994 5.33368,-18.666 8.0024,-41.3332 8.0024,-68.0017 0,-31.9983 -6.66617,-60.3333 -20.0023,-84.9974 -13.3323,-24.6678 -31.3302,-45.4996 -53.9974,-62.5028 -22.6672,-16.9995 -49.3356,-29.9977 -80.0015,-38.9986 -30.6659,-9.00083 -62.9983,-13.5012 -97.001,-13.5012 -96.6669,0 -169.33,18.6698 -217.998,56.0018 -48.6675,37.332 -74.3338,92.6657 -76.9987,166.001l133.999 0c0.664365,-34.0027 14.4997,-60.8363 41.4984,-80.5007 27.0025,-19.6682 60.8325,-29.5023 101.501,-29.5023 43.9982,0 77.3328,8.0024 100,23.9997 22.6672,16.0011 33.9989,37.6698 33.9989,65.0026 0,10.6674 -1.33248,20.4977 -4.0012,29.4985 -2.66497,9.00083 -7.82974,17.1684 -15.4981,24.4989 -7.66834,7.33428 -18.1668,13.8353 -31.4991,19.503 -13.3361,5.66399 -30.6659,10.8325 -52.0006,15.4981 -50.6681,10.6674 -94.5012,21.4999 -131.499,32.5013 -37.0017,10.9977 -67.5024,24.6641 -91.5021,40.9992 -23.9997,16.3351 -41.6673,36.1685 -52.999,59.5 -11.3317,23.3316 -16.9995,52.999 -16.9995,88.9986 0,27.3365 4.99962,53.0028 14.9989,77.0025 9.99925,23.9997 25.3322,44.8315 45.9988,62.4991 20.6666,17.6676 46.1677,31.668 76.5033,42.0014 30.3318,10.3333 66.1662,15.4981 107.499,15.4981 40.0008,0 76.0003,-5.16478 107.999,-15.4981 32.0021,-10.3333 59.5,-25.0019 82.5013,-44.002 22.9975,-19.0001 40.834,-42.0014 53.4982,-69.0001 12.668,-26.9987 19.6682,-56.8313 21.0007,-89.4978l-131.998 0z"
   horiz-adv-x="557"
   unicode="S" />
   <glyph
   id="glyph32"
   d="M204 0l0 548.001 -199.999 0 0 116 539.999 0 0 -116 -201 0 0 -548.001 -139 0z"
   horiz-adv-x="549"
   unicode="T" />
   <glyph
   id="glyph34"
   d="M227.999 0l-225 664.001 148.001 0 145 -466.001 144 466.001 144 0 -225 -664.001 -131.001 0z"
   horiz-adv-x="587"
   unicode="V" />
   <glyph
   id="glyph36"
   d="M325 241c-6.66679,-6.66679 -16.3329,-11.999 -29,-15.9997 -12.6671,-4.00069 -30.9996,-8.3331 -55.0006,-13.0003 -37.3331,-7.33331 -62.9989,-16.6662 -76.999,-28.0002 -14.0001,-11.3325 -21.0002,-27.6654 -21.0002,-48.9988 0,-36.6666 21.0002,-55.0006 62.9989,-55.0006 16.6677,0 32.1668,2.8335 46.5001,8.5005 14.3334,5.66547 26.6672,13.3336 36.9998,22.9997 10.3342,9.66615 18.6673,21.0002 25.0008,34.0005 6.33353,12.9988 9.50029,26.833 9.50029,41.4997l0.999788 53.9993zm8.99963 -241c-3.99915,12.6671 -6.66679,27.3337 -7.99984,43.9999 -15.3332,-17.3327 -35.6668,-31.167 -60.9994,-41.4997 -25.3341,-10.3342 -54.6674,-15.5006 -88.0013,-15.5006 -56.6654,0 -98.1666,12.4997 -124.499,37.5005 -26.3339,24.9993 -39.5001,57.4993 -39.5001,97.5001 0,35.3335 5.667,63.4996 16.9995,84.4998 11.334,21.0002 27.0004,37.5005 47.0008,49.4995 19.9988,12.0005 43.8325,20.8343 71.4994,26.4998 27.6669,5.667 57.8326,10.8333 90.5,15.5006 32.6659,4.66721 54.6674,10.8333 65.9998,18.4999 11.334,7.66658 16.9995,20.1662 16.9995,37.5005 0,15.9997 -7.49918,28.4993 -22.4991,37.5005 -14.9999,8.99963 -35.1677,13.4994 -60.5002,13.4994 -29.9998,0 -51.5006,-6.66679 -64.4994,-20.0004 -13.0003,-13.3336 -21.1676,-30.9996 -24.5002,-52.9995l-121 0c0.666525,25.3326 4.83308,48.6671 12.4997,69.999 7.66658,21.3334 20.0004,39.6675 36.9998,55.0006 17.001,15.3332 39.1668,27.1663 66.5005,35.4994 27.3337,8.33464 60.6661,12.5012 100,12.5012 38.6662,0 71.4994,-4.33395 98.4999,-13.0003 27.0004,-8.66637 48.6671,-21.1676 65,-37.5005 16.3329,-16.3329 28.1661,-36.6666 35.4994,-60.9994 7.33331,-24.3343 11.0007,-51.8339 11.0007,-82.5002l0 -311 -121 0z"
   horiz-adv-x="480"
   unicode="a" />
   <glyph
   id="glyph38"
   d="M350 294.001c-0.666525,17.9993 -3.83329,33.8331 -9.50029,47.4999 -5.66547,13.6668 -13.1662,24.9993 -22.4991,33.9989 -9.33289,9.00116 -20.0004,15.6664 -32.0009,20.0004 -11.999,4.33395 -24.3328,6.49939 -36.9998,6.49939 -25.9991,0 -48.4997,-9.49875 -67.4987,-28.4993 -19.0006,-19.0006 -29.8339,-45.5003 -32.5,-79.4993l200.999 0zm-205 -82.0011c1.99958,-37.3331 12.8329,-66.9996 32.5,-88.9996 19.6671,-21.9999 45.5003,-33.0007 77.4997,-33.0007 21.3334,0 40.1666,4.83461 56.4995,14.5008 16.3345,9.66615 26.8346,23.1671 31.5002,40.4999l134.001 0c-15.3332,-50.6667 -42.0003,-89.6661 -79.9999,-117 -37.9996,-27.3337 -83.3341,-41.0005 -136,-41.0005 -164.001,0 -246,89.3344 -246,268 0,37.9996 5.33374,72.3334 15.9997,103 10.6675,30.6678 26.1665,57.0002 46.5001,79.0002 20.3336,21.9999 45.1671,38.8335 74.5003,50.5008 29.3333,11.6657 63.0005,17.5001 101,17.5001 75.9993,0 133.5,-24.3343 172.5,-72.9999 39.0009,-48.6671 58.5007,-122 58.5007,-220.001l-339 0z"
   horiz-adv-x="498"
   unicode="e" />
   <glyph
   id="glyph40"
   d="M262 98.0007c32.0009,0 58.5007,12.1664 79.5008,36.4992 21.0002,24.3328 31.4987,57.4993 31.4987,99.4996 0,105.334 -36.9998,158 -111,158 -73.9997,0 -111,-50.0002 -111,-150 0,-43.9999 10.5001,-79.0002 31.5002,-104.999 21.0002,-26.0006 47.4999,-38.9994 79.4993,-38.9994zm107 -32.0009c-9.33289,-21.9999 -26.1665,-39.1668 -50.5008,-51.4991 -24.3328,-12.3338 -52.4989,-18.5015 -84.4998,-18.5015 -40.6657,0 -74.8336,7.16745 -102.499,21.5008 -27.6669,14.3334 -50.0002,33.1665 -67.0012,56.4995 -16.9995,23.333 -29.3333,50.3334 -36.9998,80.9997 -7.66658,30.6678 -11.4999,62.0007 -11.4999,94 0,38.0012 5.667,72.834 17.001,104.5 11.3325,31.6676 26.6656,58.6665 45.9995,80.9997 19.3338,22.3347 42.0003,39.6675 67.9994,52.0013 26.0006,12.3323 54.0008,18.4999 84.0006,18.4999 61.3326,0 107.334,-24.6676 138,-74.0012l0 61.0009 130 0 0 -497.001c0,-37.3331 -6.33353,-70.1664 -19.0006,-98.4999 -12.6671,-28.3335 -29.9998,-51.9997 -51.9997,-71.0003 -21.9999,-18.999 -48.0006,-33.4998 -78.0004,-43.4992 -29.9998,-9.99942 -61.9991,-14.9999 -95.9996,-14.9999 -34.0005,0 -65.6666,4.83308 -94.9998,14.4992 -29.3333,9.66769 -54.5,23.3345 -75.5001,41.0005 -21.0002,17.666 -37.5005,39.1668 -49.4995,64.4994 -12.0005,25.3341 -18.0008,54.0008 -18.0008,86.0002l121 0c0,-29.9998 9.83355,-53.1669 29.4991,-69.4999 19.6671,-16.3329 45.8336,-24.5002 78.501,-24.5002 34.667,0 64.0003,9.50029 87.9998,28.5009 23.9995,18.999 36,44.8323 36,77.4997l0 80.9997z"
   horiz-adv-x="524"
   unicode="g" />
   <glyph
   id="glyph42"
   d="M23.0013 0l0 664 488 0 0 -116.001 -353.003 0 0 -141.998 325.002 0 0 -117.003 -325.002 0 0 -170.997 369 0 0 -118.002 -503.997 0zm239.997 850.998l-134.997 -117.998 -46.0026 50.9984 128.001 134.003 106.002 0 127.997 -134.003 -45.9988 -50.9984 -135.001 117.998z"
   horiz-adv-x="526"
   unicode="Ê" />
  </font>
  <font
   style="font-style:normal;font-variant:normal;font-weight:400"
   vert-adv-y="90"
   vert-origin-y="90"
   vert-origin-x="45"
   horiz-origin-y="0"
   horiz-origin-x="0"
   font-weight="400"
   font-style="normal"
   font-variant="normal"
   horiz-adv-x="667"
   id="FontID0">
	<font-face
   id="font-face45"
   font-family="Arial">
		<font-face-src>
			<font-face-name
   name="Arial" />
		</font-face-src>
	</font-face>
   <missing-glyph
   id="missing-glyph49"><path
     id="path47"
     d="M0 0z" /></missing-glyph>
   <glyph
   id="glyph51"
   d=""
   horiz-adv-x="277"
   unicode=" " />
   <glyph
   id="glyph53"
   d="M57.9996 544.167c0,51.0009 12.8324,94.5014 38.6674,130.167 25.8321,35.8327 63.1672,53.6655 112.167,53.6655 45,0 82.3322,-15.9987 111.832,-47.999 29.5001,-32.0003 44.3338,-79.1659 44.3338,-141.165 0,-60.5026 -15.0009,-107.167 -44.8327,-139.836 -29.8346,-32.6664 -66.668,-48.9997 -110.333,-48.9997 -43.5004,0 -79.6677,16.1688 -108.502,48.3335 -28.834,32.1675 -43.3332,80.8327 -43.3332,145.834zm153.334 122.834c-21.8353,0 -39.9997,-9.33448 -54.5017,-28.1679 -14.4992,-18.8334 -21.8324,-53.331 -21.8324,-103.499 0,-45.6661 7.33322,-77.8337 21.9997,-96.3325 14.6664,-18.669 32.8337,-28.0006 54.3345,-28.0006 22.1669,0 40.4986,9.33165 55.0006,28.165 14.4992,18.8334 21.6652,53.1666 21.6652,103 0,46.0006 -7.33322,78.3354 -21.9997,96.8343 -14.6664,18.6661 -32.8337,28.0006 -54.6661,28.0006zm0.498897 -693l390.501 753.998 71.6655 0 -389.5 -753.998 -72.6661 0zm308.168 194.167c0,51.3326 12.8324,94.833 38.6645,130.499 25.6677,35.5011 63.1672,53.3338 112.334,53.3338 45,0 82.3322,-16.0016 111.832,-47.999 29.5001,-32.0003 44.1666,-79.1688 44.1666,-141.168 0,-60.4998 -14.8309,-107.167 -44.6655,-139.833 -29.8346,-32.6664 -66.8324,-48.9997 -110.835,-48.9997 -43.3332,0 -79.3332,16.166 -108.164,48.5008 -28.834,32.3319 -43.3332,80.9999 -43.3332,145.667zm153.499 122.831c-22.1669,0 -40.3341,-9.33165 -54.8334,-28.165 -14.4992,-18.8334 -21.668,-53.3338 -21.668,-103.501 0,-45.3316 7.33606,-77.3319 22.0025,-96.1653 14.4992,-18.8334 32.4992,-28.1679 54,-28.1679 22.4986,0 40.833,9.33448 55.3322,28.1679 14.4992,18.8334 21.668,53.1666 21.668,103 0,46.0006 -7.33606,78.3325 -22.0025,96.8343 -14.4992,18.6661 -32.6664,27.9978 -54.4989,27.9978z"
   horiz-adv-x="889"
   unicode="%" />
   <glyph
   id="glyph55"
   d="M251.001 116l0 195.999 -195.001 0 0 82.0005 195.001 0 0 195.001 82.9991 0 0 -195.001 195.001 0 0 -82.0005 -195.001 0 0 -195.999 -82.9991 0z"
   horiz-adv-x="583"
   unicode="+" />
   <glyph
   id="glyph57"
   d="M89.0021 0l0 100.001 100.001 0 0 -100.001c0,-36.8334 -6.50267,-66.6652 -19.6668,-89.331 -13.0053,-22.6715 -33.8343,-40.337 -62.3338,-52.6677l-24.0038 38.0012c18.669,8.16377 32.3376,20.1657 41.0003,35.8299 8.83275,15.8343 13.8331,38.5001 14.8365,68.1675l-49.833 0z"
   horiz-adv-x="277"
   unicode="," />
   <glyph
   id="glyph59"
   d="M31.0021 215l0 87.9992 271.997 0 0 -87.9992 -271.997 0z"
   horiz-adv-x="332"
   unicode="-" />
   <glyph
   id="glyph61"
   d="M90.9977 0l0 100.001 100.001 0 0 -100.001 -100.001 0z"
   horiz-adv-x="277"
   unicode="." />
   <glyph
   id="glyph63"
   d="M42.0009 353.333c0,84.5007 8.66551,152.833 25.9994,204.5 17.5011,51.8343 43.3332,91.6667 77.6664,119.5 34.166,27.8334 77.3319,41.6664 129.333,41.6664 38.3329,0 72,-7.66488 101.166,-23.1647 29.0012,-15.4998 53.0022,-37.834 71.6683,-66.9996 18.6661,-29.0012 33.3326,-64.5023 43.9993,-106.333 10.834,-41.8337 16.166,-98.3338 16.166,-169.169 0,-83.999 -8.66551,-151.999 -25.8321,-203.666 -17.1666,-51.8343 -43.0015,-91.6667 -77.3348,-119.667 -34.166,-27.9978 -77.4992,-41.9981 -129.832,-41.9981 -68.8337,0 -123.001,24.4998 -162.334,73.6667 -47.1656,59.9981 -70.6648,157.167 -70.6648,291.665zm89.9999 -0.331653c0,-117.833 13.6658,-196.169 41.1647,-234.833 27.5017,-38.8346 61.5004,-58.1669 101.835,-58.1669 40.3341,0 74.3329,19.4995 101.835,58.3313 27.4989,39.0019 41.1647,117.167 41.1647,234.669 0,117.833 -13.6658,196.166 -41.1647,234.833 -27.3345,38.8318 -61.6677,58.1669 -102.835,58.1669 -40.3341,0 -72.6661,-17.1666 -96.8314,-51.3354 -30.1691,-43.5004 -45.1672,-124.166 -45.1672,-241.665z"
   horiz-adv-x="556"
   unicode="0" />
   <glyph
   id="glyph65"
   d="M372.001 0l-88.0003 0 0 560.334c-21.1682,-20.3353 -49,-40.5005 -83.3341,-60.6657 -34.334,-20.1696 -65.3319,-35.3371 -92.6666,-45.3368l0 85c49.1657,22.9998 92.1651,51.0017 129.002,84.0013 36.8329,32.8339 62.9988,64.669 78.332,95.6669l56.6666 0 0 -719z"
   horiz-adv-x="556"
   unicode="1" />
   <glyph
   id="glyph67"
   d="M42.0009 190.001l87.9987 11.999c10.1679,-50.0003 27.1672,-86.0003 51.3326,-108 24.1682,-21.9997 53.8356,-33.0009 89.0021,-33.0009 41.6664,0 76.833,14.3348 105.165,43.0015 28.3351,28.6668 42.4998,64.1678 42.4998,106.5 0,40.3313 -13.1669,73.6667 -39.6652,100.001 -26.3338,26.1666 -59.8337,39.3335 -100.667,39.3335 -16.6677,0 -37.3351,-3.33354 -62.1666,-9.83338l9.83338 76.9974c5.8337,-0.666141 10.6668,-0.997795 14.1647,-0.997795 37.6667,0 71.3338,9.83338 101.5,29.3329 30.0019,19.4995 45,49.4986 45,89.9999 0,32.1675 -10.9984,58.833 -32.8337,79.9993 -21.8324,21.1663 -49.9974,31.6658 -84.4979,31.6658 -34.3332,0 -62.8356,-10.8312 -85.6686,-32.4992 -22.8331,-21.6652 -37.4995,-54.1672 -43.9993,-97.5004l-87.9987 16.0016c10.8312,59.0003 35.1666,104.834 73.3322,137.333 38.0012,32.4992 85.5014,48.6652 142.166,48.6652 39.0019,0 75.0018,-8.33102 107.836,-25.166 32.9981,-16.6649 58.1641,-39.5008 75.4979,-68.3319 17.5011,-29.0012 26.1666,-59.6664 26.1666,-92.1684 0,-30.8324 -8.33102,-58.833 -24.8315,-84.1662 -16.6677,-25.3332 -41.3348,-45.4989 -73.834,-60.4998 42.3326,-9.66614 75.1663,-29.999 98.6654,-60.8343 23.3348,-30.6652 35.0022,-69.3326 35.0022,-115.498 0,-62.5011 -22.8359,-115.668 -68.3348,-159.168 -45.6661,-43.5004 -103.334,-65.1656 -173.001,-65.1656 -62.8327,0 -114.999,18.8334 -156.498,56.3329 -41.6664,37.4995 -65.3329,86.0003 -71.1666,145.667z"
   horiz-adv-x="556"
   unicode="3" />
   <glyph
   id="glyph69"
   d="M41.9996 187.998l91.9991 7.00228c6.83366,-44.8333 22.6696,-78.5004 47.3345,-101.165 24.6649,-22.501 54.8332,-33.8357 90.3317,-33.8357 42.8333,0 78.6691,15.9999 107.835,47.8356 29.0021,31.9997 43.4984,74.3319 43.4984,126.996 0,50.1681 -13.8313,89.6666 -41.6671,118.669 -27.8311,29.0021 -64.6645,43.4984 -110.5,43.4984 -28.4962,0 -53.9995,-6.49643 -76.6644,-19.4986 -22.501,-13.0022 -40.1682,-29.8311 -53.1658,-50.5007l-83.0016 11.9999 69.0017 368.001 354.999 0 0 -83.9992 -284.836 0 -38.1636 -193.169c42.8333,30.1683 87.8306,45.1659 134.832,45.1659 62.332,0 115.001,-21.6626 157.835,-64.997 42.8333,-43.3345 64.332,-99.0014 64.332,-167.001 0,-64.8331 -18.8335,-120.833 -56.5006,-167.998 -45.831,-57.9995 -108.5,-87.0015 -187.834,-87.0015 -64.997,0 -117.999,18.3324 -159.165,54.8332 -41.1659,36.5008 -64.6645,84.8329 -70.5005,145.165z"
   horiz-adv-x="556"
   unicode="5" />
   <glyph
   id="glyph71"
   d="M498.999 541l-86.9981 -7.00157c-7.83496,34.5005 -19.0006,59.6693 -33.5027,75.3335 -23.8309,25.1688 -53.331,37.6667 -88.3332,37.6667 -28.165,0 -53.1666,-7.83212 -74.6645,-23.4992 -27.669,-20.1657 -49.3341,-49.4986 -65.5001,-88.1659 -16.0016,-38.8346 -24.3354,-93.9996 -25.0016,-165.501 21.1663,32.1675 47.1685,56.1656 77.8337,71.6655 30.668,15.6671 62.6683,23.502 96.3325,23.502 58.6686,0 108.669,-21.668 150.001,-64.834 41.1675,-43.166 61.8349,-98.8327 61.8349,-167.335 0,-45 -9.66897,-86.6664 -29.0012,-125.331 -19.4995,-38.6674 -46.0006,-68.1675 -79.9993,-88.6677 -33.8343,-20.5001 -72.3344,-30.8324 -115.333,-30.8324 -73.1678,0 -133.001,27 -179.334,80.8327 -46.1678,53.8327 -69.3326,142.668 -69.3326,266.332 0,138.333 25.6649,239 76.833,301.836 44.6655,54.6661 104.834,81.9977 180.666,81.9977 56.3329,0 102.665,-15.8315 138.665,-47.3329 36,-31.4986 57.668,-74.999 64.834,-130.666zm-360 -309.002c0,-30.3307 6.49984,-59.3319 19.3351,-86.9981 12.8324,-27.6661 30.8324,-48.668 53.6655,-63.1672 23.0003,-14.4992 47.3329,-21.8324 73.1678,-21.8324 37.4995,0 69.4998,14.9981 95.998,45 26.5011,29.999 39.8353,70.6648 39.8353,122.165 0,49.5014 -13.1669,88.5004 -39.3335,117 -26.1666,28.5023 -59.502,42.8343 -100.001,42.8343 -39.668,0 -73.4995,-14.332 -101.168,-42.8343 -27.6661,-28.4995 -41.4992,-65.8318 -41.4992,-112.167z"
   horiz-adv-x="556"
   unicode="6" />
   <glyph
   id="glyph73"
   d="M89.9992 418.998l0 100.004 99.9991 0 0 -100.004 -99.9991 0zm0 -418.998l0 99.9991 99.9991 0 0 -99.9991 -99.9991 0z"
   horiz-adv-x="277"
   unicode=":" />
   <glyph
   id="glyph75"
   d="M-1.50018 0l274.668 716 104.166 0 291.497 -716 -107.83 0 -82.8369 216.998 -301.497 0 -77.6691 -216.998 -100.499 0zm206 294l244.001 0 -74.6688 198.499c-22.4983,60.3342 -39.4974,110.167 -51.3332,149.499 -9.83402,-46.6625 -22.9998,-92.4965 -39.4974,-137.833l-78.5021 -210.165z"
   horiz-adv-x="666"
   unicode="A" />
   <glyph
   id="glyph77"
   d="M77.0019 0l0 716 246.666 0c55.6636,0 98.1658,-3.33179 127.498,-10.1655 41.002,-9.50259 75.9989,-26.6674 104.999,-51.3332 37.8359,-32.0009 66.0035,-72.6671 84.6685,-122.334 18.8351,-49.6673 28.1676,-106.5 28.1676,-170.331 0,-54.3335 -6.33651,-102.501 -19.0008,-144.501 -12.6687,-42.0006 -29.0005,-76.8362 -48.8343,-104.332 -19.9995,-27.5004 -41.6648,-49.1701 -65.3319,-64.8348 -23.5013,-15.8347 -52.0004,-27.8318 -85.3358,-35.9999 -33.4967,-8.16812 -71.8298,-12.1671 -115.165,-12.1671l-258.332 0zm94.9997 84.0013l152.665 0c47.1684,0 84.167,4.33046 111,13.1658 26.8331,8.83099 48.1671,21.1682 64.1675,37.1643 22.3326,22.5027 39.8332,52.8333 52.3318,90.835 12.4986,38.0016 18.8351,84.0013 18.8351,138.169 0,74.9959 -12.3329,132.666 -36.8329,172.996 -24.5,40.3347 -54.3335,67.3336 -89.5005,81.0009 -25.333,9.83402 -66.1692,14.666 -122.5,14.666l-150.166 0 0 -547.997z"
   horiz-adv-x="722"
   unicode="D" />
   <glyph
   id="glyph79"
   d="M78.9992 0l0 716 516.999 0 0 -84.0013 -421.999 0 0 -219.999 395.001 0 0 -84.0013 -395.001 0 0 -243.997 439.003 0 0 -84.0013 -534.003 0z"
   horiz-adv-x="666"
   unicode="E" />
   <glyph
   id="glyph81"
   d="M82.0006 0l0 716.003 483.001 0 0 -84.0018 -388 0 0 -223.001 336.002 0 0 -84.0018 -336.002 0 0 -324.998 -95.0003 0z"
   horiz-adv-x="610"
   unicode="F" />
   <glyph
   id="glyph83"
   d="M80.9999 0l0 716 95.0003 0 0 -294.999 370 0 0 294.999 95.0003 0 0 -716 -95.0003 0 0 336.999 -370 0 0 -336.999 -95.0003 0z"
   horiz-adv-x="722"
   unicode="H" />
   <glyph
   id="glyph85"
   d="M92.998 0l0 716 95.0041 0 0 -716 -95.0041 0z"
   horiz-adv-x="277"
   unicode="I" />
   <glyph
   id="glyph87"
   d="M29.0006 203.333l84.9968 11.6673c2.33346,-54.8362 12.5054,-92.3325 30.6702,-112.67 18.1648,-20.1629 43.4975,-30.3282 75.663,-30.3282 23.6698,0 44.168,5.49837 61.3337,16.3342 17.1724,10.9967 29.1682,25.8289 35.6724,44.4966 6.49747,18.6677 9.66239,48.6673 9.66239,89.6704l0 493.499 95.0012 0 0 -487.833c0,-59.8384 -7.168,-106.172 -21.6649,-139.169 -14.5036,-32.836 -37.3353,-57.8335 -68.837,-75.1668 -31.334,-17.1657 -68.1664,-25.8357 -110.33,-25.8357 -62.8357,0 -110.832,18.0038 -144.171,54.1724 -33.3322,36.1619 -49.3311,89.8314 -47.9968,161.163z"
   horiz-adv-x="500"
   unicode="J" />
   <glyph
   id="glyph89"
   d="M73.0015 0l0 715.999 94.9978 0 0 -631.999 352.001 0 0 -83.9996 -446.999 0z"
   horiz-adv-x="556"
   unicode="L" />
   <glyph
   id="glyph91"
   d="M75.9983 0l0 716.002 97.3346 0 375.666 -562.001 0 562.001 90.9981 0 0 -716.002 -97.3279 0 -375.666 562.001 0 -562.001 -91.0048 0z"
   horiz-adv-x="722"
   unicode="N" />
   <glyph
   id="glyph93"
   d="M48.0014 348.499c0,118.667 31.9965,211.669 95.8326,278.833 63.8317,67.1679 146.167,100.669 247.168,100.669 66.1649,0 125.666,-15.8347 178.831,-47.3341 52.999,-31.4994 93.4995,-75.5017 121.336,-131.998 27.8318,-56.3352 41.8306,-120.337 41.8306,-191.835 0,-72.5014 -14.666,-137.502 -43.998,-194.666 -29.332,-57.3339 -70.8355,-100.669 -124.502,-130.001 -53.832,-29.5021 -111.833,-44.1681 -173.999,-44.1681 -67.4993,0 -127.668,16.3362 -180.833,48.8343 -52.999,32.5024 -93.3338,76.8318 -120.668,133.167 -27.3303,56.1651 -40.9976,115.666 -40.9976,178.499zm98.0001 -1.6659c0,-86.1687 23.1656,-153.999 69.4967,-203.501 46.3355,-49.4972 104.502,-74.333 174.5,-74.333 71.3326,0 129.835,25.0015 176.001,75.0002 45.9997,49.9987 68.9995,121 68.9995,212.999 0,58.1668 -9.83402,109.003 -29.4977,152.334 -19.668,43.3351 -48.5029,77.0019 -86.3344,100.835 -38.0016,23.8328 -80.4994,35.8342 -127.668,35.8342 -66.9978,0 -124.667,-22.9998 -173,-68.9995 -48.3328,-46.004 -72.497,-122.67 -72.497,-230.168z"
   horiz-adv-x="777"
   unicode="O" />
   <glyph
   id="glyph95"
   d="M76.9991 0l0 715.999 270.333 0c47.5019,0 83.8348,-2.33149 109.002,-6.83265 35.1672,-5.83173 64.6674,-17.0007 88.5008,-33.3331 23.8334,-16.5002 42.9977,-39.5005 57.4991,-69.0008 14.4984,-29.4973 21.6667,-61.9973 21.6667,-97.5001 0,-60.6667 -19.3352,-112.166 -58.1674,-154.166 -38.6674,-42.1646 -108.834,-63.166 -210.167,-63.166l-183.666 0 0 -292 -95.0008 0zm95.0008 375.999l185 0c61.332,0 104.665,11.3338 130.501,34.1662 25.6674,22.8354 38.4996,54.835 38.4996,96.3343 0,29.8329 -7.50093,55.5003 -22.6676,76.8343 -15.1667,21.331 -35.1672,35.4998 -59.8336,42.3325 -15.9998,4.16552 -45.5,6.33219 -88.333,6.33219l-183.166 0 0 -256z"
   horiz-adv-x="667"
   unicode="P" />
   <glyph
   id="glyph97"
   d="M78.9992 0l0 716 317.336 0c63.8317,0 112.33,-6.49787 145.5,-19.3322 33.1653,-12.8344 59.667,-35.5028 79.4964,-68.0008 19.8338,-32.4981 29.6678,-68.498 29.6678,-107.834 0,-50.8316 -16.4976,-93.6652 -49.3315,-128.501 -32.8339,-34.8312 -83.4998,-56.8324 -152.168,-66.3306 25.1672,-12.0014 44.1681,-24.0029 57.1682,-35.6685 27.6661,-25.333 53.832,-57.1638 78.332,-95.3311l123.835 -195.001 -118.335 0 -94.6639 149.002c-27.5004,43.165 -50.3345,75.9989 -68.1666,98.833 -18.0021,22.8298 -34.0026,38.6645 -48.1671,47.8313 -14.0031,9.00107 -28.5034,15.3332 -43.1694,19.0008 -10.667,2.16741 -28.1676,3.33179 -52.6676,3.33179l-109.666 0 0 -317.999 -94.9997 0zm94.9997 399.998l203.335 0c43.3307,0 76.9975,4.50054 101.332,13.5016 24.3343,8.83536 42.8336,23.1656 55.3322,42.9993 12.6687,19.668 19.0008,41.002 19.0008,64.1675 0,33.8325 -12.1671,61.8344 -36.6672,83.6655 -24.5,21.8355 -63.1645,32.6681 -115.998,32.6681l-226.335 0 0 -237.002z"
   horiz-adv-x="722"
   unicode="R" />
   <glyph
   id="glyph99"
   d="M45.9997 229.998l88.999 8.00241c4.1691,-35.9999 14.0031,-65.502 29.5021,-88.6675 15.4989,-22.9998 39.4974,-41.6648 71.9999,-55.9994 32.4981,-14.1688 69.1652,-21.3339 109.831,-21.3339 36.17,0 68.0008,5.33348 95.6669,16.1662 27.6661,10.8327 48.1671,25.6688 61.6687,44.4995 13.4972,18.8351 20.3309,39.3361 20.3309,61.3329 0,22.337 -6.49787,41.8349 -19.498,58.6683 -13.0001,16.6677 -34.4998,30.6664 -64.499,42.1664 -19.1665,7.33518 -61.6687,19.0008 -127.502,34.8355 -65.8334,15.8304 -111.833,30.6664 -138.165,44.6652 -34.1683,17.9978 -59.5013,40.3347 -76.169,66.8321 -16.8334,26.5017 -25.1672,56.3352 -25.1672,89.1691 0,36.3314 10.3355,70.1639 30.8365,101.498 20.4966,31.4994 50.3301,55.3322 89.8319,71.6684 39.3317,16.3319 83.1683,24.5 131.331,24.5 53.0034,0 99.836,-8.49956 140.336,-25.6688 40.5005,-16.9991 71.6641,-42.1664 93.4995,-75.4974 21.8311,-33.1697 33.5011,-70.8355 35.167,-112.836l-91.0007 -6.99938c-4.83197,45.1667 -21.3339,79.335 -49.5015,102.335 -28.1676,23.1656 -69.8325,34.6655 -124.833,34.6655 -57.3339,0 -99.1644,-10.5013 -125.33,-31.4994 -26.1703,-21.0025 -39.3361,-46.3355 -39.3361,-75.9989 0,-25.6688 9.33251,-46.8326 27.8362,-63.5003 18.3292,-16.502 65.8334,-33.6668 142.831,-51.0017 77.0019,-17.5006 129.835,-32.6681 158.5,-45.6682 41.4991,-19.1665 72.3357,-43.3307 92.1651,-72.8328 19.8338,-29.332 29.6678,-63.1645 29.6678,-101.498 0,-38.1673 -10.8327,-73.8358 -32.6638,-107.503 -21.8355,-33.6668 -53.0034,-59.8327 -93.8353,-78.4977 -40.8319,-18.665 -86.6659,-28.0019 -137.833,-28.0019 -64.6647,0 -118.832,9.50259 -162.499,28.3333 -43.8366,18.8351 -78.0006,47.1684 -102.836,85.17 -24.9972,37.8315 -37.9973,80.6651 -39.3317,128.496z"
   horiz-adv-x="666"
   unicode="S" />
   <glyph
   id="glyph101"
   d="M258.999 0l0 631.998 -235.999 0 0 84.0013 567.002 0 0 -84.0013 -236.003 0 0 -631.998 -94.9997 0z"
   horiz-adv-x="610"
   unicode="T" />
   <glyph
   id="glyph103"
   d="M546 715.998l95.0015 0 0 -413.5c0,-71.9993 -8.16854,-129.165 -24.3323,-171.497 -16.3371,-42.1682 -45.667,-76.6691 -88.0039,-103.17 -42.4961,-26.4962 -97.9991,-39.831 -166.996,-39.831 -66.8331,0 -121.671,11.4987 -164.167,34.6648 -42.6694,23.1707 -73.0017,56.5006 -91.1701,100.336 -18.1638,43.831 -27.33,103.666 -27.33,179.497l0 413.5 94.9968 0 0 -413.331c0,-62.168 5.83601,-108.168 17.3347,-137.502 11.4987,-29.4986 31.166,-52.3321 59.3343,-68.1633 27.9997,-15.9999 62.332,-23.9998 102.833,-23.9998 69.3342,0 118.833,15.8312 148.331,47.3298 29.5032,31.6672 44.1682,92.3364 44.1682,182.336l0 413.331z"
   horiz-adv-x="722"
   unicode="U" />
   <glyph
   id="glyph105"
   d="M281 0l-276.665 716 102.666 0 186 -520.331c14.8317,-41.6692 27.5004,-80.6695 37.5001,-117.167 10.9984,39.166 23.8328,78.1663 38.4988,117.167l193 520.331 96.6656 0 -279.164 -716 -98.5016 0z"
   horiz-adv-x="666"
   unicode="V" />
   <glyph
   id="glyph107"
   d="M200.499 0l-188.499 715.998 98.3316 0 107.334 -469.499c11.6673,-49.1658 21.9998,-97.9991 30.8334,-146.331 18.8335,76.3318 29.8358,120.331 33.002,131.999l135.334 483.832 114.168 0 102.664 -362.498c25.166,-89.9992 43.8357,-174.5 55.8355,-253.333 9.49874,45.1659 21.6672,96.9967 36.4961,155.497l111.835 460.333 95.1654 0 -195.998 -715.998 -92.1678 0 -150.167 545.498c-12.665,45.667 -20.3324,73.6668 -23.1661,84.0039 -8.16386,-32.6695 -15.4987,-60.6692 -21.8312,-83.8353l-150.167 -545.667 -99.0014 0z"
   horiz-adv-x="943"
   unicode="W" />
   <glyph
   id="glyph109"
   d="M404.999 65.0001c-32.6649,-27.8341 -64.167,-47.3341 -94.3325,-58.8327 -30.1655,-11.5016 -62.5007,-17.1685 -97.1674,-17.1685 -56.9987,0 -100.833,13.8331 -131.499,41.6672 -30.666,27.6662 -46.0005,63.166 -46.0005,106.335 0,25.3317 5.83173,48.4998 17.3333,69.4982 11.6664,21.0014 26.8331,37.6665 45.5,50.3338 18.8317,12.6674 39.8331,22.335 63.3339,28.835 17.3333,4.49816 43.4982,8.8315 78.3327,13.1648 70.9996,8.33403 123.5,18.5021 157.001,30.1685 0.332642,11.9991 0.497465,19.6648 0.497465,22.8324 0,35.6676 -8.33104,60.8345 -24.9991,75.5008 -22.4998,19.8327 -56.0007,29.6651 -100.332,29.6651 -41.5023,0 -72.1683,-7.33311 -91.8332,-21.8315 -19.8357,-14.5014 -34.3341,-40.1688 -43.8338,-77.167l-86.0015 11.9991c7.83357,36.8334 20.6688,66.6663 38.6674,89.3339 18.0016,22.6676 43.9987,40.001 78.0001,52.3327 33.8336,12.1669 73.3341,18.3343 118.001,18.3343 44.3313,0 80.4994,-5.16644 108.333,-15.6671 27.6662,-10.5007 48.1642,-23.5007 61.1642,-39.3327 13,-15.835 22.1671,-35.8354 27.5014,-60.0014 2.83195,-14.9989 4.33334,-41.9998 4.33334,-80.832l0 -116.667c0,-81.5003 1.83403,-133 5.49908,-154.834 3.50023,-21.8315 10.8333,-42.6651 21.5019,-62.6656l-92.001 0c-8.83449,18.4991 -14.5014,40.1658 -17.0007,65.0001zm-7.00047 195c-31.9996,-13 -79.9989,-24.0012 -143.998,-33.0005 -36.3329,-5.16644 -62.0003,-11.0012 -77.0021,-17.5012 -14.9989,-6.50001 -26.4975,-15.9998 -34.6667,-28.3315 -8.16621,-12.4996 -12.3317,-26.3327 -12.3317,-41.6672 0,-23.1651 8.83449,-42.6651 26.6653,-58.1674 17.8338,-15.4993 43.8338,-23.3329 78.0001,-23.3329 33.8336,0 64.0021,7.33311 90.5026,22.1671 26.3327,14.6662 45.8327,34.8345 58.1644,60.3341 9.49978,19.8327 14.1688,49.0003 14.1688,87.4999l0.497465 31.9996z"
   horiz-adv-x="556"
   unicode="a" />
   <glyph
   id="glyph111"
   d="M146.999 0l-82.0006 0 0 716.003 88.0044 0 0 -255.503c37.1622,46.3351 84.4951,69.4998 142.163,69.4998 31.8331,0 62.1694,-6.33259 90.6689,-19.1679 28.4995,-12.8296 51.8343,-30.9997 70.3332,-54.1644 18.3345,-23.3348 32.8308,-51.3354 43.166,-84.1662 10.4995,-32.6664 15.6642,-67.833 15.6642,-105.165 0,-88.6677 -21.9968,-157.334 -65.8318,-205.67 -43.9993,-48.5008 -96.667,-72.6633 -158.167,-72.6633 -61.1659,0 -109.168,25.5005 -144,76.3313l0 -65.3329zm-0.997795 263.333c0,-61.9993 8.49826,-106.832 25.3304,-134.498 27.6661,-45.1672 65.0041,-67.833 112.167,-67.833 38.5001,0 71.6655,16.6677 99.5017,49.9974 28.0006,33.3354 41.9981,82.9984 41.9981,149 0,67.6686 -13.3342,117.502 -40.1669,149.669 -26.8327,32.1675 -59.3291,48.3307 -97.3303,48.3307 -38.5001,0 -71.6655,-16.6677 -99.5017,-49.9974 -28.0006,-33.3354 -41.9981,-81.5017 -41.9981,-144.669z"
   horiz-adv-x="556"
   unicode="b" />
   <glyph
   id="glyph113"
   d="M404.999 189.999l86.0015 -11.9991c-9.49978,-59.1653 -33.501,-105.334 -72.3332,-138.832 -38.8352,-33.501 -86.6667,-50.169 -143.168,-50.169 -70.8318,0 -127.833,23.1681 -170.834,69.5012 -43.1656,46.3331 -64.6644,112.667 -64.6644,199.001 0,55.9977 9.33196,104.833 27.8311,146.833 18.5021,41.832 46.6688,73.3341 84.6679,94.1647 37.8343,21.0014 79.001,31.5021 123.668,31.5021 56.1656,0 102.331,-14.1688 137.999,-42.6681 35.8324,-28.4993 58.8327,-69.0008 68.8329,-121.333l-85.0005 -13c-8.16621,34.8345 -22.4998,60.9994 -43.3334,78.6684 -20.6658,17.4982 -45.6649,26.3327 -74.9973,26.3327 -44.3343,0 -80.3346,-15.835 -108.169,-47.4989 -27.6662,-31.8347 -41.4993,-81.8359 -41.4993,-150.501 0,-69.666 13.3327,-120.168 40.001,-151.667 26.8331,-31.4991 61.6646,-47.3341 104.498,-47.3341 34.6667,0 63.5017,10.5007 86.5019,31.6669 23.1651,21.0014 37.8313,53.5014 43.9987,97.3323z"
   horiz-adv-x="499"
   unicode="c" />
   <glyph
   id="glyph115"
   d="M400.999 0l0 65.8332c-32.8327,-51.1669 -81.1647,-76.8343 -144.999,-76.8343 -41.3315,0 -79.3336,11.3338 -113.833,34.1692 -34.6667,22.6646 -61.4998,54.4994 -80.6672,95.1656 -18.9996,40.8341 -28.4993,87.6677 -28.4993,140.666 0,51.6674 8.66667,98.501 25.8322,140.669 17.3333,41.9998 43.1686,74.332 77.6674,96.664 34.3341,22.5028 72.9985,33.6688 115.499,33.6688 31.3343,0 59.1683,-6.66783 83.5022,-19.8327 24.3338,-13.1678 44.1665,-30.5012 59.498,-51.6674l0 257.498 88.0003 0 0 -715.999 -82.0008 0zm-277.999 258.834c0,-66.3336 14.0009,-115.834 42.1676,-148.667 27.9989,-32.8327 61.1672,-49.1681 99.3341,-49.1681 38.4996,0 71.1644,15.6671 98.1654,47.0014 26.8331,31.3313 40.3336,79.1658 40.3336,143.501 0,70.664 -13.6683,122.664 -41.1667,155.832 -27.3336,33.1653 -61.1672,49.6656 -101.333,49.6656 -39.1679,0 -71.8327,-15.832 -98.1684,-47.6667 -26.1648,-31.8317 -39.3327,-81.9978 -39.3327,-150.498z"
   horiz-adv-x="556"
   unicode="d" />
   <glyph
   id="glyph117"
   d="M420.001 167.999l91.0001 -11.9991c-14.1688,-52.8332 -40.6692,-93.9999 -79.3336,-123.167 -38.6674,-29.1646 -88.0003,-43.8338 -148.167,-43.8338 -75.6686,0 -135.667,23.3359 -180.001,70.0017 -44.3343,46.501 -66.4984,111.998 -66.4984,196.166 0,86.9994 22.332,154.667 67.1667,202.666 44.8318,48.1672 102.999,72.1683 174.499,72.1683 69.1656,0 125.667,-23.5007 169.501,-70.667 43.8308,-47.1662 65.8332,-113.5 65.8332,-199.001 0,-5.16644 -0.167819,-13 -0.500462,-23.3329l-386.5 0c3.33241,-56.8338 19.3322,-100.5 48.332,-130.665 28.835,-30.1685 65.0001,-45.3352 108.169,-45.3352 32.1644,0 59.6658,8.50185 82.3334,25.4996 22.8324,17.0007 40.8311,44.1665 54.1667,81.5003zm-288.002 141.001l289 0c-3.83288,43.666 -14.9989,76.3339 -33.1653,98.1654 -27.8341,33.8336 -64.167,50.8343 -108.666,50.8343 -40.3336,0 -74.1672,-13.5005 -101.669,-40.5014 -27.3336,-26.998 -42.5003,-63.166 -45.5,-108.498z"
   horiz-adv-x="556"
   unicode="e" />
   <glyph
   id="glyph119"
   d="M86.9994 0l0 451 -78.0001 0 0 67.9998 78.0001 0 0 54.9998c0,34.8345 2.99977,60.6667 9.16714,77.4996 8.49886,22.6676 23.1681,41.1667 44.4991,55.3355 21.1662,14.1658 51.0021,21.1662 89.3339,21.1662 24.8343,0 52.1679,-2.99977 82.1686,-8.83449l-13.1678 -76.9991c-18.3343,3.16759 -35.4998,4.8338 -51.8322,4.8338 -26.6683,0 -45.5,-5.6669 -56.669,-17.0007 -10.9982,-11.3338 -16.5002,-32.5 -16.5002,-63.4987l0 -47.5019 101 0 0 -67.9998 -99.9994 0 0 -451 -88.0003 0z"
   horiz-adv-x="277"
   unicode="f" />
   <glyph
   id="glyph121"
   d="M49.8334 -43.0007l85.0005 -11.9991c3.50023,-26.3327 13.5005,-45.5 29.8329,-57.667 21.8345,-16.1676 51.6674,-24.3338 89.4987,-24.3338 40.6692,0 72.1683,8.16621 94.3355,24.3338 22.1671,16.1676 37.166,39 44.9996,68.1677 4.49816,17.8338 6.66483,55.3325 6.33219,112.499 -38.4996,-45.3322 -86.3341,-67.9998 -143.665,-67.9998 -71.3352,0 -126.668,25.6674 -165.668,77.167 -39.1649,51.3318 -58.6649,112.999 -58.6649,184.832 0,49.5007 8.99932,95.1686 26.8331,137.001 17.8308,41.835 43.8308,73.9994 77.8323,96.8348 33.9984,22.8324 73.9994,34.1662 120,34.1662 61.1672,0 111.666,-25.0021 151.334,-75.0003l0 63.9991 80.9998 0 0 -448.165c0,-80.835 -8.16621,-138.002 -24.6665,-171.667 -16.3354,-33.6688 -42.5003,-60.3341 -78.0001,-79.8341 -35.6676,-19.5 -79.5015,-29.3324 -131.502,-29.3324 -61.8325,0 -111.666,13.8331 -149.665,41.6672 -38.1669,27.6662 -56.5012,69.4982 -55.1676,125.331zm72.0005 311.335c0,-67.835 13.5005,-117.336 40.4984,-148.502 27.1688,-31.1665 61.0024,-46.8306 101.669,-46.8306 40.4984,0 74.332,15.4993 101.833,46.498 27.3336,31.0016 40.9989,79.6663 40.9989,146 0,63.3339 -14.1658,111.168 -42.3325,143.333 -28.1667,32.1674 -62.1681,48.1672 -101.833,48.1672 -39.1679,0 -72.3332,-15.832 -99.8346,-47.4989 -27.3336,-31.6669 -40.9989,-78.6684 -40.9989,-141.166z"
   horiz-adv-x="556"
   unicode="g" />
   <glyph
   id="glyph123"
   d="M66.0018 0l0 716.003 87.9987 0 0 -257.669c40.8302,47.8318 92.33,71.6655 154.664,71.6655 38.1713,0 71.3366,-7.50047 99.6717,-22.6658 28.165,-15.1653 48.3307,-36 60.497,-62.6683 12.1663,-26.6627 18.1644,-65.4973 18.1644,-116.164l0 -328.501 -87.9987 0 0 328.167c0,43.8349 -9.49606,75.8324 -28.3294,95.8336 -19.0035,20.0012 -45.6718,30.0019 -80.3338,30.0019 -25.8349,0 -50.1675,-6.66708 -73.0034,-20.1713 -22.8302,-13.4986 -38.999,-31.8331 -48.8296,-54.9978 -9.6718,-23.0003 -14.502,-54.8334 -14.502,-95.4992l0 -283.334 -87.9987 0z"
   horiz-adv-x="556"
   unicode="h" />
   <glyph
   id="glyph125"
   d="M66.001 615.999l0 99.9994 88.0003 0 0 -99.9994 -88.0003 0zm0 -615.999l0 519 88.0003 0 0 -519 -88.0003 0z"
   horiz-adv-x="222"
   unicode="i" />
   <glyph
   id="glyph127"
   d="M66.3307 0l0 716.003 88.0044 0 0 -407.837 208 210.835 113.664 0 -198 -192.835 218.001 -326.165 -108.334 0 -172.335 265.164 -60.9959 -59.3291 0 -205.835 -88.0044 0z"
   horiz-adv-x="500"
   unicode="k" />
   <glyph
   id="glyph129"
   d="M63.9991 0l0 715.999 88.0003 0 0 -715.999 -88.0003 0z"
   horiz-adv-x="222"
   unicode="l" />
   <glyph
   id="glyph131"
   d="M66.0018 0l0 519.001 78.9959 0 0 -73.3322c16.1688,25.3304 37.8368,45.8305 64.834,61.1659 27.0028,15.4998 57.668,23.1647 92.1656,23.1647 38.3357,0 69.8343,-7.99937 94.3369,-23.8337 24.497,-15.9987 41.8337,-38.1656 51.8343,-66.8296 41.3291,60.497 94.8302,90.6632 160.832,90.6632 51.6642,0 91.4966,-14.1676 119.168,-42.6671 27.8305,-28.4995 41.8337,-72.3344 41.8337,-131.499l0 -355.833 -88.0044 0 0 326.664c0,35.0022 -2.99905,60.3382 -8.66267,75.8381 -5.66929,15.4998 -16.0044,27.8305 -31.1697,37.3323 -15.0009,9.49606 -32.6664,14.1676 -52.8321,14.1676 -36.669,0 -66.9996,-12.1663 -91.1678,-36.3345 -24.1682,-24.3326 -36.1644,-63.1672 -36.1644,-116.504l0 -301.164 -88.0044 0 0 336.835c0,38.999 -7.16598,68.3319 -21.4979,87.8343 -14.332,19.4967 -37.8312,29.3329 -70.3332,29.3329 -24.6671,0 -47.4973,-6.50267 -68.502,-19.5023 -20.999,-12.9997 -36.1644,-31.9975 -45.6661,-57.1691 -9.33165,-24.9959 -13.9975,-61.1659 -13.9975,-108.329l0 -269.002 -87.9987 0z"
   horiz-adv-x="832"
   unicode="m" />
   <glyph
   id="glyph133"
   d="M66.001 0l0 519 78.998 0 0 -73.6667c38.0021,56.5012 93.0019,84.6679 164.835,84.6679 31.3343,0 59.9984,-5.6669 86.1663,-16.8329 26.1678,-11.169 45.8327,-26 58.8327,-44.1665 13,-18.1694 22.1671,-39.8361 27.3336,-64.8352 3.16759,-16.3324 4.8338,-44.8318 4.8338,-85.498l0 -318.668 -88.0003 0 0 315.333c0,35.8354 -3.33241,62.6686 -10.1651,80.3346 -6.83564,17.666 -19.0026,31.8317 -36.3359,42.5003 -17.3333,10.4977 -37.8313,15.832 -61.1642,15.832 -37.3338,0 -69.5012,-11.8343 -96.667,-35.6676 -27.1688,-23.6655 -40.6662,-68.8329 -40.6662,-135.167l0 -283.165 -88.0003 0z"
   horiz-adv-x="556"
   unicode="n" />
   <glyph
   id="glyph135"
   d="M33.0005 259.5c0,95.8339 26.6653,166.833 80.1667,212.999 44.4991,38.3348 98.9985,57.5021 163.165,57.5021 71.1674,0 129.5,-23.3329 174.835,-70.0017 45.1644,-46.498 67.832,-110.998 67.832,-193.166 0,-66.6663 -10.0002,-118.999 -30.0007,-157.166 -19.9975,-38.1669 -49.1651,-67.835 -87.4999,-89.0012 -38.1669,-21.1662 -79.9989,-31.6669 -125.166,-31.6669 -72.6658,0 -131.334,23.1681 -176.165,69.669 -44.8348,46.498 -67.1667,113.5 -67.1667,200.832zm89.9992 -0.167819c0,-66.3306 14.5014,-115.999 43.5012,-148.832 29.1646,-33.0005 65.6653,-49.5007 109.832,-49.5007 43.666,0 80.0019,16.5002 109.167,49.6686 28.9998,33.1653 43.5012,83.664 43.5012,151.499 0,63.9991 -14.6662,112.499 -43.8338,145.332 -29.1676,33.0005 -65.5005,49.5007 -108.834,49.5007 -44.1665,0 -80.6672,-16.3324 -109.832,-49.1651 -28.9998,-32.8327 -43.5012,-82.3334 -43.5012,-148.502z"
   horiz-adv-x="556"
   unicode="o" />
   <glyph
   id="glyph137"
   d="M66.001 -199.001l0 718 79.9989 0 0 -68.1677c18.8347,26.3357 40.1658,46.1683 63.9991,59.3362 23.6685,13.1648 52.5005,19.8327 86.3341,19.8327 44.3343,0 83.3343,-11.3338 117.168,-34.1662 33.8336,-22.6676 59.3332,-54.835 76.6665,-96.1665 17.1655,-41.5023 25.8322,-86.8346 25.8322,-136.335 0,-52.8332 -9.49978,-100.5 -28.4993,-143 -18.9996,-42.3325 -46.6658,-74.8325 -83.0017,-97.5001 -36.1651,-22.4998 -74.332,-33.8336 -114.333,-33.8336 -29.3324,0 -55.6651,6.16736 -78.8332,18.5021 -23.3329,12.3317 -42.3325,27.8311 -57.3313,46.6658l0 -253.168 -88.0003 0zm79.9989 455.333c0,-66.4984 13.5005,-115.667 40.3336,-147.498 27.0009,-31.8347 59.6658,-47.8345 98.0006,-47.8345 39,0 72.3332,16.5002 99.9994,49.5007 27.8341,33.0005 41.6672,83.9996 41.6672,153.165 0,66.001 -13.5005,115.334 -40.6662,148.167 -27.1688,32.8357 -59.501,49.1681 -97.1674,49.1681 -37.3338,0 -70.3343,-17.5012 -99.0015,-52.3327 -28.832,-34.9993 -43.1656,-85.6658 -43.1656,-152.335z"
   horiz-adv-x="556"
   unicode="p" />
   <glyph
   id="glyph139"
   d="M396.499 -198.998l0 254.664c-13.663,-19.1679 -32.8308,-35.0022 -57.3335,-47.6674 -24.497,-12.6652 -50.6664,-18.9978 -78.3325,-18.9978 -61.5004,0 -114.333,24.497 -158.831,73.6667 -44.3338,48.9997 -66.5007,116.334 -66.5007,201.662 0,52.0044 8.99716,98.6683 26.9971,140.003 18.1701,41.1647 44.3338,72.4989 78.667,93.668 34.3332,21.3335 72,31.9975 113,31.9975 64.165,0 114.503,-26.8327 151.336,-80.6683l0 69.6699 78.9959 0 0 -717.998 -87.9987 0zm-270.998 460c0,-66.6708 13.9975,-116.668 41.9981,-150.004 28.0006,-33.3297 61.5004,-49.9974 100.67,-49.9974 37.4967,0 69.6642,15.8343 96.8314,47.4973 26.9971,31.8331 40.5014,79.9993 40.5014,144.669 0,69.0009 -14.3376,120.83 -42.8371,155.667 -28.4995,34.8321 -61.8293,52.1631 -100.329,52.1631 -38.1656,0 -70.5033,-16.1631 -97.0015,-48.5008 -26.4983,-32.3319 -39.8324,-82.8283 -39.8324,-151.495z"
   horiz-adv-x="556"
   unicode="q" />
   <glyph
   id="glyph141"
   d="M65.0001 0l0 519 79.001 0 0 -79.4985c20.1653,36.8334 38.8322,61.1642 55.9977,72.8336 17.1685,11.8313 36.0003,17.666 56.5012,17.666 29.6681,0 59.8336,-9.33496 90.4996,-27.8341l-31.3343 -81.1677c-21.331,12.0021 -42.6651,18.0016 -63.9991,18.0016 -19.1674,0 -36.3329,-5.83472 -51.4996,-17.3333 -15.1667,-11.5016 -26,-27.5014 -32.5,-47.9994 -9.83242,-31.1665 -14.6662,-65.3357 -14.6662,-102.502l0 -271.166 -88.0003 0z"
   horiz-adv-x="332"
   unicode="r" />
   <glyph
   id="glyph143"
   d="M30.9986 154.999l87.0024 14.0009c4.8338,-34.8345 18.4991,-61.4998 40.8311,-80.1667 22.335,-18.4991 53.6693,-27.8341 93.6672,-27.8341 40.5014,0 70.5021,8.16621 90.167,24.6665 19.5,16.3354 29.3324,35.6676 29.3324,57.8348 0,19.8327 -8.8315,35.4998 -26.3327,46.8336 -12.3317,7.83357 -42.3325,17.666 -89.9992,29.8329 -64.3348,16.1676 -108.834,30.1655 -133.833,41.9998 -24.8343,11.9991 -43.666,28.3345 -56.5012,49.3329 -12.8322,20.8336 -19.3322,44.0017 -19.3322,69.3334 0,23.1681 5.33426,44.4991 15.832,64.167 10.6685,19.6678 25.0021,36.0003 43.1686,49.0003 13.6653,10.0002 32.3322,18.4991 55.8329,25.4996 23.6655,7.00047 48.8325,10.5007 75.8334,10.5007 40.6662,0 76.3339,-5.83472 107,-17.666 30.8338,-11.6694 53.4984,-27.6692 68.1647,-47.6667 14.5014,-20.1683 24.6695,-47.0014 30.1685,-80.6672l-86.0015 -12.0021c-3.83288,27.0009 -15.1667,48.1672 -33.8336,63.3339 -18.6639,15.1667 -44.9996,22.6676 -79.1658,22.6676 -40.1658,0 -69.0008,-6.66783 -86.1663,-20.0005 -17.1655,-13.3327 -25.8322,-28.9998 -25.8322,-46.8336 0,-11.3338 3.50023,-21.6667 10.6655,-30.8338 7.16529,-9.33196 18.3343,-17.1655 33.6658,-23.3329 8.83449,-3.33241 34.5019,-10.8333 77.4996,-22.4998 62.0003,-16.5002 105.334,-30.1655 130,-40.6662 24.6665,-10.5007 44.0017,-26 58.0026,-46.0005 14.1658,-20.1653 21.1662,-45.1674 21.1662,-75.1651 0,-29.1676 -8.50185,-56.669 -25.6674,-82.5012 -17.1655,-25.8322 -41.832,-45.8327 -73.9994,-59.9984 -32.3352,-14.1688 -68.8329,-21.1692 -109.502,-21.1692 -67.3316,0 -118.831,14.0009 -154.166,41.835 -35.332,27.9989 -57.8318,69.3334 -67.6672,124.165z"
   horiz-adv-x="499"
   unicode="s" />
   <glyph
   id="glyph145"
   d="M257 78.5026l12.0019 -77.6692c-24.6671,-5.16472 -46.834,-7.83496 -66.1663,-7.83496 -31.8331,0 -56.5001,5.00031 -74.1713,15.171 -17.4954,10.165 -29.8318,23.3291 -36.9978,39.8324 -7.16598,16.4976 -10.6639,51.1653 -10.6639,103.997l0 298.998 -65.0041 0 0 68.0031 65.0041 0 0 128.33 87.9987 52.8378 0 -181.168 87.9987 0 0 -68.0031 -87.9987 0 0 -303.999c0,-25.166 1.49669,-41.3348 4.66582,-48.5008 2.99905,-7.16598 7.99937,-12.8296 15.0009,-17.1666 6.9959,-4.16693 16.9965,-6.33259 29.9962,-6.33259 9.66614,0 22.5014,1.16787 38.3357,3.50362z"
   horiz-adv-x="277"
   unicode="t" />
   <glyph
   id="glyph147"
   d="M404.999 0l0 77.167c-40.3336,-58.8327 -94.9978,-88.1681 -164.166,-88.1681 -30.4982,0 -59.0005,5.83472 -85.501,17.5012 -26.4975,11.8343 -46.1653,26.5005 -58.9975,44.1665 -12.8352,17.8338 -21.8345,39.5005 -27.0009,65.1679 -3.50023,17.3333 -5.33426,44.6669 -5.33426,81.9978l0 321.167 88.0003 0 0 -287.166c0,-45.8327 1.83403,-76.8343 5.33426,-92.6663 5.49908,-23.1681 17.1655,-41.1667 35.1672,-54.3345 17.8338,-13.1648 39.8331,-19.8327 66.1658,-19.8327 26.3327,0 50.9991,6.66783 73.9994,20.1653 23.0003,13.5005 39.3327,32.0026 49.0003,55.1676 9.49978,23.1681 14.3336,57.0017 14.3336,101.168l0 277.498 88.0003 0 0 -519 -79.001 0z"
   horiz-adv-x="556"
   unicode="u" />
   <glyph
   id="glyph149"
   d="M207.836 0l-195.834 519.001 94.1669 0 110.999 -310.836c11.9962,-33.4998 23.1647,-68.3319 33.3297,-104.496 7.83496,27.3316 18.669,60.1625 32.8365,98.6626l115.33 316.669 90.3344 0 -196.498 -519.001 -84.6651 0z"
   horiz-adv-x="500"
   unicode="v" />
   <glyph
   id="glyph151"
   d="M159.335 0l-156.835 519.001 92.0012 0 82.834 -299.503 29.3329 -111.498c1.16787,5.49921 10.165,41.1647 26.8327,107.002l82.165 303.999 90.17 0 78.1625 -301.334 25.5005 -98.8327 29.8318 100.165 89.6711 300.002 85.4985 0 -162.833 -519.001 -90.9977 0 -82.3351 310.501 -20.8346 88.8321 -105.001 -399.333 -93.1634 0z"
   horiz-adv-x="722"
   unicode="w" />
   <glyph
   id="glyph153"
   d="M-1.50199 0l274.671 716.002 104.167 0 291.494 -716.002 -107.828 0 -82.8377 216.998 -301.499 0 -77.6679 -216.998 -100.5 0zm206.001 294.002l244 0 -74.6639 198.498c-22.5031,60.3346 -39.5011,110.169 -51.336,149.502 -9.83002,-46.6691 -22.9993,-92.5001 -39.5011,-137.835l-78.4993 -210.165zm45.5024 466.001l63.9957 136.997 116.002 0 -106.997 -136.997 -73.001 0z"
   horiz-adv-x="666"
   unicode="Á" />
   <glyph
   id="glyph155"
   d="M92.9989 0l0 715.999 95.0008 0 0 -715.999 -95.0008 0zm-28.9998 760l64.0021 137.001 115.999 0 -107 -137.001 -73.0015 0z"
   horiz-adv-x="277"
   unicode="Í" />
   <glyph
   id="glyph157"
   d="M404.999 65.0001c-32.6649,-27.8341 -64.167,-47.3341 -94.3325,-58.8327 -30.1655,-11.5016 -62.5007,-17.1685 -97.1674,-17.1685 -56.9987,0 -100.833,13.8331 -131.499,41.6672 -30.666,27.6662 -46.0005,63.166 -46.0005,106.335 0,25.3317 5.83173,48.4998 17.3333,69.4982 11.6664,21.0014 26.8331,37.6665 45.5,50.3338 18.8317,12.6674 39.8331,22.335 63.3339,28.835 17.3333,4.49816 43.4982,8.8315 78.3327,13.1648 70.9996,8.33403 123.5,18.5021 157.001,30.1685 0.332642,11.9991 0.497465,19.6648 0.497465,22.8324 0,35.6676 -8.33104,60.8345 -24.9991,75.5008 -22.4998,19.8327 -56.0007,29.6651 -100.332,29.6651 -41.5023,0 -72.1683,-7.33311 -91.8332,-21.8315 -19.8357,-14.5014 -34.3341,-40.1688 -43.8338,-77.167l-86.0015 11.9991c7.83357,36.8334 20.6688,66.6663 38.6674,89.3339 18.0016,22.6676 43.9987,40.001 78.0001,52.3327 33.8336,12.1669 73.3341,18.3343 118.001,18.3343 44.3313,0 80.4994,-5.16644 108.333,-15.6671 27.6662,-10.5007 48.1642,-23.5007 61.1642,-39.3327 13,-15.835 22.1671,-35.8354 27.5014,-60.0014 2.83195,-14.9989 4.33334,-41.9998 4.33334,-80.832l0 -116.667c0,-81.5003 1.83403,-133 5.49908,-154.834 3.50023,-21.8315 10.8333,-42.6651 21.5019,-62.6656l-92.001 0c-8.83449,18.4991 -14.5014,40.1658 -17.0007,65.0001zm-7.00047 195c-31.9996,-13 -79.9989,-24.0012 -143.998,-33.0005 -36.3329,-5.16644 -62.0003,-11.0012 -77.0021,-17.5012 -14.9989,-6.50001 -26.4975,-15.9998 -34.6667,-28.3315 -8.16621,-12.4996 -12.3317,-26.3327 -12.3317,-41.6672 0,-23.1651 8.83449,-42.6651 26.6653,-58.1674 17.8338,-15.4993 43.8338,-23.3329 78.0001,-23.3329 33.8336,0 64.0021,7.33311 90.5026,22.1671 26.3327,14.6662 45.8327,34.8345 58.1644,60.3341 9.49978,19.8327 14.1688,49.0003 14.1688,87.4999l0.497465 31.9996zm-185 322.998l64.0021 137.001 115.999 0 -107 -137.001 -73.0015 0z"
   horiz-adv-x="556"
   unicode="á" />
   <glyph
   id="glyph159"
   d="M405 190.001l86.0003 -12.0019c-9.49889,-59.1647 -33.4998,-105.333 -72.3344,-138.832 -38.8318,-33.4998 -86.6664,-50.1675 -143.167,-50.1675 -70.8321,0 -127.831,23.1675 -170.833,69.5026 -43.166,46.3323 -64.6667,112.666 -64.6667,198.998 0,56.0012 9.33448,104.834 27.8334,146.835 18.5017,41.8337 46.6667,73.3322 84.668,94.1669 37.8312,20.999 78.9987,31.4986 123.667,31.4986 56.1656,0 102.331,-14.1647 137.999,-42.6671 35.8327,-28.4995 58.833,-68.9981 68.8337,-121.331l-84.9996 -12.9997c-8.16661,34.8321 -22.5014,60.9987 -43.3332,78.667 -20.6674,17.4983 -45.6689,26.331 -75.0018,26.331 -44.3338,0 -80.3338,-15.8315 -108.167,-47.5001 -27.6661,-31.8331 -41.4992,-81.8333 -41.4992,-150.5 0,-69.667 13.3342,-120.166 39.9997,-151.665 26.8327,-31.5014 61.6677,-47.3357 104.502,-47.3357 34.6649,0 63.4989,10.5024 86.4992,31.6686 23.1675,20.999 37.834,53.4982 43.9993,97.3332zm-205.333 -276.001l25.3332 86.0003 65.0012 0 -16.1688 -51.9987c27.8334,-3.33354 48.8352,-11.8346 63,-25.6677 14.1676,-13.6658 21.1691,-29.0012 21.1691,-45.8334 0,-24.3326 -11.8346,-45.8334 -35.5011,-64.4995 -23.4992,-18.6661 -59.1675,-28.0006 -106.668,-28.0006 -26.8327,0 -50.4992,0 -70.8321,0l5.00031 61.9993c21.1663,-0.666141 36.4989,-1.00063 46.4995,-1.00063 30.8324,0 52.6677,4.16693 65.1656,12.668 9.50173,6.49984 14.3348,14.332 14.3348,23.8337 0,5.8337 -1.83401,10.9984 -5.66645,15.4998 -3.66803,4.49858 -10.5024,8.49826 -20.5001,11.6674 -10.1679,3.1663 -26.8356,4.99748 -50.1675,5.33197z"
   horiz-adv-x="500"
   unicode="ç" />
   <glyph
   id="glyph161"
   d="M419.998 167.998l91.0034 -11.9962c-14.1676,-52.8378 -40.6658,-94.0025 -79.336,-123.171 -38.6645,-29.1628 -87.9987,-43.8293 -148.167,-43.8293 -75.6623,0 -135.666,23.3291 -180,69.9987 -44.3338,46.4995 -66.5007,112.002 -66.5007,196.169 0,86.9952 22.337,154.664 67.1697,202.666 44.8327,48.1663 103,72.1644 174.501,72.1644 69.1653,0 125.665,-23.4992 169.5,-70.6677 43.8293,-47.1628 65.8318,-113.499 65.8318,-198.998 0,-5.16472 -0.164409,-12.9997 -0.498897,-23.3348l-386.504 0c3.33354,-56.8346 19.3379,-100.499 48.3363,-130.666 28.834,-30.1663 64.9984,-45.3316 108.164,-45.3316 32.1675,0 59.6693,8.49826 82.3351,25.5005 22.8359,16.9965 40.8359,44.1638 54.1644,81.496zm-288 141.001l289.003 0c-3.83244,43.6705 -15.0009,76.337 -33.1653,98.1694 -27.8362,33.8343 -64.1707,50.8308 -108.669,50.8308 -40.3313,0 -74.1656,-13.4986 -101.667,-40.5014 -27.3316,-26.9971 -42.497,-63.1615 -45.5017,-108.499zm145.003 357.001l-54.4989 -82.9984 -100.001 0 104.496 136.998 92.999 0 111.504 -136.998 -100.001 0 -54.4989 82.9984z"
   horiz-adv-x="556"
   unicode="ê" />
   <glyph
   id="glyph163"
   d="M96.9987 0l0 519.001 88.0015 0 0 -519.001 -88.0015 0zm-28.9984 583.001l64.0006 136.998 115.999 0 -106.999 -136.998 -73.0006 0z"
   horiz-adv-x="277"
   unicode="í" />
   <glyph
   id="glyph165"
   d="M33.002 259.501c0,95.8305 26.6649,166.832 80.1632,213 44.5008,38.3322 99.0014,57.4983 163.169,57.4983 71.1656,0 129.498,-23.3347 174.832,-69.9993 45.1659,-46.5007 67.8354,-111.001 67.8354,-193.169 0,-66.6645 -9.99991,-118.997 -30.0044,-157.165 -19.9998,-38.1683 -49.1658,-67.8307 -87.498,-89.0015 -38.1683,-21.1661 -79.9993,-31.6672 -125.165,-31.6672 -72.6691,0 -131.334,23.1707 -176.167,69.6668 -44.8333,46.5007 -67.1656,113.502 -67.1656,200.837zm89.9992 -0.168617c0,-66.3319 14.501,-115.999 43.4984,-148.832 29.166,-33.002 65.6668,-49.4984 109.835,-49.4984 43.667,0 79.9993,16.4963 109.165,49.667 29.0021,33.166 43.4984,83.6667 43.4984,151.497 0,63.9994 -14.665,112.5 -43.831,145.334 -29.166,33.002 -65.5029,49.4984 -108.833,49.4984 -44.1682,0 -80.669,-16.3324 -109.835,-49.1658 -28.9974,-32.8334 -43.4984,-82.3318 -43.4984,-148.5zm79.9993 323.669l63.9994 136.996 115.999 0 -106.997 -136.996 -73.0017 0z"
   horiz-adv-x="556"
   unicode="ó" />
   <glyph
   id="glyph167"
   d="M405.003 0l0 77.1647c-40.337,-58.8302 -95.0003,-88.1631 -164.171,-88.1631 -30.5008,0 -59.0003,5.8337 -85.4985,17.5011 -26.4983,11.8318 -46.165,26.4983 -59.0003,44.1638 -12.8353,17.8356 -21.8324,39.4979 -26.9971,65.1685 -3.50362,17.331 -5.3348,44.6626 -5.3348,82.0006l0 321.165 87.9987 0 0 -287.166c0,-45.8362 1.83685,-76.8359 5.3348,-92.6702 5.49921,-23.1647 17.1666,-41.1647 35.1666,-54.3288 17.8299,-13.1698 39.8324,-19.8368 66.1663,-19.8368 26.3338,0 51.0009,6.66708 74.0012,20.1657 23.0003,13.5042 39.3335,32.0031 48.9997,55.1678 9.49606,23.1704 14.332,56.999 14.332,101.168l0 277.5 87.9987 0 0 -519.001 -78.9959 0zm-190.001 583.001l64.0006 136.998 115.999 0 -107.002 -136.998 -72.9977 0z"
   horiz-adv-x="556"
   unicode="ú" />
  </font>
</defs>
</svg>
